Popular:
Poll:

Best Category?

Music
Movies
E-Books
Softwares
Graphics
Games
20 September 2012

The Avengers 2012 1080 Xvid Ac3 ADTRG

Movies | author: magazine | views: 1647

http://i.imm.io/BYbW.jpeg
The Avengers 2012 1080 Xvid Ac3 ADTRG | 5.52 GB

Genre:
Action, Adventure, Sci-Fi

Actors:
Robert Downey Jr., Chris Evans, Scarlett Johansson

Plot:
Nick Fury of S.H.I.E.L.D. brings together a team of super humans to form The Avengers to help save the Earth from Loki and his army.

General:
Complete name : The Avengers 2012 BRrip 1080p Xvid AC3 ADTRG.avi
Encoder : SP1
Source : Bluray [Thanks]
Format : AVI
Format/Info : Audio Video Interleave
Format profile : OpenDML
File size : 5.43 GiB
Duration : 2h 22mn
Overall bit rate : 5 444 Kbps
Writing application : VirtualDubMod 1.5.10.2 (build 2540/release)
Writing library : VirtualDubMod build 2540/release

Video:
ID : 0
Format : MPEG-4 Visual
Format profile : Advanced Simple@L5
Format settings, BVOP : 2
Format settings, QPel : No
Format settings, GMC : No warppoints
Format settings, Matrix : Default (H.263)
Muxing mode : Packed bitstream
Codec ID : XVID
Codec ID/Hint : XviD
Duration : 2h 22mn
Bit rate : 4 795 Kbps
Width : 1 920 pixels
Height : 1 072 pixels
Display aspect ratio : 16:9
Frame rate : 23.976 fps
Color space : YUV
Chroma subsampling : 4:2:0
Bit depth : 8 bits
Scan type : Progressive
Compression mode : Lossy
Bits/(Pixel*Frame) : 0.097
Stream size : 4.79 GiB (88%)
Writing library : XviD 64

Audio:
ID : 1
Format : AC-3
Format/Info : Audio Coding 3
Mode extension : CM (complete main)
Codec ID : 2000
Duration : 2h 22mn
Bit rate mode : Constant
Bit rate : 640 Kbps
Channel(s) : 6 channels
Channel positions : Front: L C R, Side: L R, LFE
Sampling rate : 48.0 KHz
Bit depth : 16 bits
Compression mode : Lossy
Stream size : 654 MiB (12%)
Alignment : Split accross interleaves
Interleave, duration : 42 ms (1.00 video frame)
Interleave, preload duration : 500 ms

Notes:

subtitle .SRT file included for non english parts


http://imgcrave.com/u/yPJjC.gif
(Buy premium account for maximum speed and resumming ability)

Extabit:
http://extabit.com/file/2crkzd4mce8vi/The.Avengers.2012.1080.Xvid.Ac3.ADTRG.part1.rar
http://extabit.com/file/2crkzd4i27jjy/The.Avengers.2012.1080.Xvid.Ac3.ADTRG.part2.rar
http://extabit.com/file/2crkzd4i27d5q/The.Avengers.2012.1080.Xvid.Ac3.ADTRG.part3.rar

Lumfile:
http://lumfile.com/daye0513nafv/The.Avengers.2012.1080.Xvid.Ac3.ADTRG.part1.rar.html
http://lumfile.com/h25nhxc9nxiw/The.Avengers.2012.1080.Xvid.Ac3.ADTRG.part2.rar.html
http://lumfile.com/l7d5veuugu8m/The.Avengers.2012.1080.Xvid.Ac3.ADTRG.part3.rar.html


Links are Interchangeable - No Password - Single Extraction
If you like this publication, please, share it
 (Votes #: 0)

Also Advise

Information

Members of Guests cannot leave comments.

All rights reserved. Full or partial copying of materials is prohibited. © 2011-2012